#TITLE:Blue;
#SUBTITLE:;
#ARTIST:Eiffel 65;
#TITLETRANSLIT:Blue;
#SUBTITLETRANSLIT:;
#ARTISTTRANSLIT:Eiffel 65;
#CREDIT:;
#BANNER:Blue-bn.png;
#BACKGROUND:Blue-bg.png;
#LYRICSPATH:;
#CDTITLE:pm4cd.png;
#MUSIC:Blue.mp3;
#OFFSET:-0.080;
#SAMPLESTART:48.751;
#SAMPLELENGTH:20.000;
#SELECTABLE:YES;
#BPMS:0.000=128.010;
#STOPS:;
#BGCHANGES:;
// cache tags:
#FIRSTBEAT:0.250;
#LASTBEAT:463.250;
#SONGFILENAME:Songs/Music V.I.P ^_^/Blue/Blue.sm;
#HASMUSIC:1;
#HASBANNER:1;
#MUSICLENGTH:220.839;
// end cache tags

//---------------dance-single - ----------------
#NOTES:
     dance-single:
     :
     Hard:
     10:
     0.803,0.996,1.000,0.072,1.000,815.000,370.000,16.000,0.000,73.000:
0000
0000
0010
0000
0000
0010
0000
0000
0020
0000
0000
0000
0000
0000
0000
0000
0000
0000
0000
0000
0000
0000
0000
0000
0000
0000
0000
0000
0000
0000
0000
0000
,
0000
0000
0000
1130
0000
0000
0000
0100
0000
0010
0000
0001
0000
0100
0000
1000
,
0000
0100
0000
0000
0000
0010
0000
0100
0000
0010
0000
1000
0000
0100
0000
0010
,
0000
0100
0000
0001
0000
0000
0000
0100
0000
1000
0000
0010
0000
0100
0000
0001
,
0000
0010
0000
0000
0000
1000
0000
0100
0000
0010
0000
1000
0000
0100
0000
1000
,
0000
0010
0000
0001
0000
0000
0000
0100
0000
0010
0000
1000
0000
0001
0000
0100
,
0000
0010
0000
0000
0000
1000
0000
0010
0000
0100
0000
0001
0000
0010
0000
0100
,
0000
0001
0000
0100
0000
0000
0000
0001
0000
0100
0000
0010
0000
0100
0000
0001
,
0000
0010
0000
0000
0000
0000
0000
0100
0000
0100
0000
0000
0000
0100
0000
0010
,
0000
0001
0000
0100
0000
0000
0000
0001
0000
1100
0000
0010
0000
0110
0000
0010
,
0000
1100
0000
0000
0000
0110
0000
0100
0000
0011
0000
0010
0000
1100
0000
0010
,
0000
0101
0000
0001
0000
0000
0000
0100
0000
0011
0000
0100
0000
0011
0000
0010
,
0000
1100
0000
0000
0000
1010
0000
0100
0000
1001
0000
0010
0000
0110
0000
0010
,
0000
1010
0000
0100
0000
0000
0000
0010
0000
1100
0000
0001
0000
1010
0000
0100
,
0000
1010
0000
0000
0000
1000
0000
0010
0000
0110
0000
0001
0000
0110
0000
1000
,
0000
0011
0000
0100
0000
0000
0000
0010
0000
1001
0000
0010
0000
0110
0000
0001
,
0000
1010
0000
0222
0000
0000
0000
0000
0000
0000
0000
0000
0000
0000
0000
0000
,
0000
0000
0000
0000
,
0000
0333
0000
1100
0000
0000
0000
0110
0000
0000
0000
1001
0000
0000
0000
0101
,
0000
0000
0000
1010
0000
0000
0000
0110
0000
0000
0000
1001
0000
0000
0000
1010
,
0000
0000
0000
0101
0000
0000
0000
0110
0000
0000
0000
1100
0000
0000
0000
0110
,
0000
0000
0000
0011
0000
0000
0000
1001
0000
0000
0000
1100
0000
0000
0000
1010
,
0000
0000
0000
0110
0000
0000
0000
0101
0000
0000
0000
1010
0000
0000
0000
1001
,
0000
0000
0000
0110
0000
0000
0000
1001
0000
0000
0000
1100
0000
0000
0000
0110
,
0000
0000
0000
1100
0000
0000
0000
0011
0000
0000
0000
0110
0000
0000
0000
0011
,
0000
0000
0000
0101
0000
0000
0000
1100
0000
0010
0010
0022
0000
0000
0000
0000
,
0000
0033
0000
1000
0000
0011
0000
0110
0000
0011
0000
0110
0000
0011
0000
0110
,
0000
0011
0000
1000
0000
0001
0000
0110
0000
1100
0000
0110
0000
0001
0000
0110
,
0000
0011
0000
0110
0000
0010
0000
0101
0000
1010
0000
0101
0000
1010
0000
0101
,
0000
1010
0000
0001
0000
0100
0000
0110
0000
0011
0000
1100
0000
0010
0000
0110
,
0000
0011
0000
1100
0000
0010
0000
0110
0000
1100
0000
0110
0000
0011
0000
0110
,
0000
1100
0000
0010
0000
0001
0000
1100
0000
0110
0000
0011
0000
0100
0000
0011
,
0000
0110
0000
1100
0000
0010
0000
1010
0000
0101
0000
1010
0000
0101
0000
1010
,
0000
0101
0000
0010
0000
0100
0000
0001
0000
1000
1000
1010
0000
0000
0000
0100
,
0000
0010
0000
1001
0000
0100
0000
0010
0000
0001
0000
0010
0000
0100
0000
1000
,
0000
0010
0000
0100
0000
0001
0000
0010
0000
0100
0000
1000
0000
0100
0000
0010
,
0000
0001
0000
0100
0000
0010
0000
0100
0000
0010
0000
0001
0000
0010
0000
0100
,
0000
1000
0000
0000
0000
1000
0000
0100
0000
0010
0000
0100
0000
0010
0000
0001
,
0000
0010
0000
0100
0000
0010
0000
0001
0000
0010
0000
0100
0000
1000
0000
0100
,
0000
0010
0000
0000
0000
0001
0000
0010
0000
0100
0000
0010
0000
0100
0000
0010
,
0000
0100
0000
1000
0000
0100
0000
0010
0000
0100
0000
0010
0000
0001
0000
0010
,
0000
0100
0000
0000
0000
0100
0000
0000
0000
0100
0000
0000
0000
1000
0000
0000
,
0000
0010
0000
1101
0000
0010
0000
0101
0000
0010
0000
0101
0000
0010
0000
0101
,
0000
0100
0000
1010
0000
0100
0000
1010
0000
0100
0000
1010
0000
0110
0000
0110
,
0110
1100
0011
1111
0000
0010
0000
0100
0000
0001
0000
1010
0000
0100
0000
1000
,
0000
0010
0000
0101
0000
1000
0000
0100
0000
0010
0000
1001
0000
0100
0000
1000
,
0000
0100
0000
0011
0000
0100
0000
0010
0000
0001
0000
1010
0000
0100
0000
1000
,
0000
0010
0000
0110
0000
0001
0000
0010
0000
0100
0000
1001
0000
0010
0000
0001
,
0000
0100
0000
1010
0000
0100
0000
0010
0000
1000
0000
0110
0000
0001
0000
0010
,
0000
0100
0000
0011
0000
1000
0000
0100
0000
0010
0000
0101
0000
0010
0000
0001
,
0000
1000
0000
0011
0000
0100
0000
1000
0000
0010
0000
0001
0000
0100
0000
1000
,
0000
0010
0000
0011
0000
1000
0000
0100
0000
0010
0000
1010
0000
0010
0000
0001
,
0000
0100
0000
1101
0000
0010
0000
0001
0000
0100
0000
1010
0000
0100
0000
0001
,
0000
0010
0000
0011
0000
1000
0000
0100
0000
0001
0000
1010
0000
0100
0000
1000
,
0000
0001
0000
0110
0000
1000
0000
0010
0000
0001
0000
1100
0000
0001
0000
0010
,
0000
0001
0000
1010
0000
0100
0000
0010
0000
0100
0000
0011
0000
1000
0000
0100
,
0000
1000
0000
1001
0000
0010
0000
1000
0000
0010
0000
0110
0000
1000
0000
0100
,
0000
0010
0000
1100
0000
0001
0000
1000
0000
0010
0000
0101
0000
0010
0000
1000
,
0000
0001
0000
1100
0000
0010
0000
0100
0000
0001
0000
1010
0000
0010
0000
0100
,
0000
1000
0000
2012
0000
0100
0000
0010
0000
0100
0100
0100
0000
3003
0000
0100
,
0000
0001
0000
1110
0000
0100
0000
1001
0000
0110
0000
1001
0000
0110
0000
1001
,
0000
0110
0000
1000
0000
0100
0000
0011
0000
0110
0000
1100
0000
0010
0000
1100
,
0000
0110
0000
0011
0000
0100
0000
0011
0000
0110
0000
1100
0000
0110
0000
0011
,
0000
0110
0000
1000
0000
0010
0000
0110
0000
0011
0000
0110
0000
1000
0000
0110
,
0000
1100
0000
0110
0000
0001
0000
1010
0000
0101
0000
1010
0000
0101
0000
1010
,
0000
0101
0000
0010
0000
0100
0000
1001
0000
0110
0000
1001
0000
0100
0000
0110
,
0000
1001
0000
0110
0000
0001
0000
1100
0000
0011
0000
1100
0000
0011
0000
1100
,
0000
0011
0000
1000
0000
0100
0000
0010
0000
0001
0000
0010
0000
1000
0000
0010
,
0000
0001
0000
1011
0000
0100
0000
0011
0000
0110
0000
1100
0000
0110
0000
0011
,
0000
0110
0000
1000
0000
0010
0000
1001
0000
0110
0000
1001
0000
0010
0000
1100
,
0000
0011
0000
1100
0000
0001
0000
1010
0000
0101
0000
1010
0000
0101
0000
1010
,
0000
0101
0000
0010
0000
0001
0000
1100
0000
0110
0000
0011
0000
1000
0000
1100
,
0000
0110
0000
0011
0000
1100
0000
0011
0000
0110
0000
0011
0000
0110
0000
1100
,
0000
0110
0000
0001
0000
1000
0000
0110
0000
1001
0000
0110
0000
0001
0000
0011
,
0000
0110
0000
1100
0000
0010
0000
1001
0000
0110
0000
1001
0000
0110
0000
1001
,
0000
0110
0000
1100
0000
0010
0000
0110
0000
1001
0001
1101
0000
0010
0000
0101
,
0000
0010
0000
1110
0000
1000
0000
0100
0000
0010
0000
0100
0000
0010
0000
0001
,
0000
0010
0000
0100
0000
1000
0000
0100
0000
0010
0000
0001
0000
0010
0000
0100
,
0000
1000
0000
0100
0000
0010
0000
0001
0000
0010
0000
0100
0000
1000
0000
0100
,
0000
0010
0000
0001
0000
1000
0000
0100
0000
0010
0000
0001
0000
0010
0000
0100
,
0000
1000
0000
0100
0000
0010
0000
0001
0000
0010
0000
0100
0000
1000
0000
0100
,
0000
0010
0000
0001
0000
1000
0000
0100
0000
0010
0000
0001
0000
0010
0000
0100
,
0000
1000
0000
0100
0000
0010
0000
0001
0000
0010
0000
0100
0000
1000
0000
0100
,
0000
0010
0000
0001
0000
0000
0001
0000
0000
0001
0000
0000
0000
0011
0000
0011
,
0011
0000
0110
1111
0000
0000
0000
1100
0000
0000
0000
1001
0000
0000
0000
0101
,
0000
0000
0000
0110
0000
0000
0000
1100
0000
0000
0000
1001
0000
0000
0000
0011
,
0000
0000
0000
1010
0000
0000
0000
1001
0000
0000
0000
0101
0000
0000
0000
1100
,
0000
0000
0000
0110
0000
0000
0000
1010
0000
0000
0000
0101
0000
0000
0000
0011
,
0000
0000
0000
1110
0000
0000
0000
0110
0000
0000
0000
0001
0000
0000
0000
0011
,
0000
0000
0000
1000
0000
0000
0000
1010
0000
0000
0000
0001
0000
0000
0000
0110
,
0000
0000
0000
1000
0000
0000
0000
0101
0000
0000
0000
0001
0000
0000
0000
1010
,
0000
0000
0000
0010
0000
0000
0000
0011
0000
0000
0000
0100
0000
0000
1100
1100
,
0000
0110
0000
1111
0000
0001
0000
0100
0000
0010
0000
1001
0000
0100
0000
0010
,
0000
0001
0000
1010
0000
0100
0000
1000
0000
0001
0000
0110
0000
1000
0000
0100
,
0000
1000
0000
0011
0000
0100
0000
0010
0000
1000
0000
0101
0000
0010
0000
1000
,
0000
0100
0000
0011
0000
1000
0000
0001
0000
0100
0000
1010
0000
0001
0000
0010
,
0000
0100
0000
1100
0000
0001
0000
1000
0000
0010
0000
1001
0000
0010
0000
0001
,
0000
0100
0000
1100
0000
0010
0000
0001
0000
0100
0000
0110
0000
1000
0000
0100
,
0000
0001
0000
1010
0000
0100
0000
1000
0000
0001
0000
0110
0000
0010
0000
0100
,
0000
1000
0000
1101
0000
0010
0000
0001
0000
0100
0100
0202
0000
0000
0000
0000
,
0000
0303
0000
0010
0000
0100
0000
0011
0000
0110
0000
1100
0000
0011
0000
0110
,
0000
0011
0000
1000
0000
0100
0000
0101
0000
1010
0000
0101
0000
0010
0000
1010
,
0000
0101
0000
1010
0000
0001
0000
0110
0000
1100
0000
0110
0000
0011
0000
0110
,
0000
1100
0000
0001
0000
0010
0000
1100
0000
0110
0000
0011
0000
1000
0000
0110
,
0000
1100
0000
0110
0000
0001
0000
1100
0000
0110
0000
0011
0000
0110
0000
0110
,
0000
1100
0000
0012
0000
0100
0000
1100
0000
0110
0000
1100
0000
0100
0000
1010
,
0000
0110
0000
2013
0000
0001
0000
0110
0000
0011
0000
0110
0000
0011
0000
0110
,
0000
0011
0000
3100
0000
0010
0000
0001
0000
0100
0000
0010
0000
1000
0000
0010
,
0000
0100
0000
2001
0000
0010
0000
0101
0000
0011
0000
0110
0000
0011
0000
0110
,
0000
0101
0000
3002
0000
1000
0000
0110
0000
1100
0000
0110
0000
0100
0000
1100
,
0000
0110
0000
2103
0000
0001
0000
0110
0000
0011
0000
0110
0000
0011
0000
0110
,
0000
0011
0000
3001
0000
0100
0000
1110
0000
0111
0000
1110
0000
0100
0000
1011
,
0000
0111
0000
1101
0000
0010
0000
1101
0000
0111
0000
1101
0000
0111
0000
1101
,
0000
0111
0000
0000
0000
0000
0000
1101
0000
1110
0000
1101
0000
0010
0000
1011
,
0000
1101
0000
1011
0000
0010
0000
1110
0000
0111
0000
1110
0000
0111
0000
1110
,
0000
0111
0000
1200
0000
0000
0000
0000
0000
0000
0000
0000
0000
0300
0000
0000
;
